<?xml version="1.0" standalone="no"?>
<!DOCTYPE svg PUBLIC "-//W3C//DTD SVG 1.1//EN" "http://www.w3.org/Graphics/SVG/1.1/DTD/svg11.dtd" >
<svg xmlns="http://www.w3.org/2000/svg">
<metadata>Generated by IcoMoon</metadata>
<defs>
<font id="icomoon" horiz-adv-x="1024">
<font-face units-per-em="1024" ascent="960" descent="-64" />
<missing-glyph horiz-adv-x="1024" />
<glyph unicode="&#x20;" horiz-adv-x="512" d="" />
<glyph unicode="&#xe900;" glyph-name="menu" horiz-adv-x="1479" d="M0 941.037h1479.111v-164.346h-1479.111v164.346zM0 530.174h1479.111v-164.348h-1479.111v164.348zM0 119.307h1479.111v-164.344h-1479.111v164.344z" />
<glyph unicode="&#xe901;" glyph-name="quote" horiz-adv-x="1152" d="M1152 950.185l-29.692-206.006c-60.7 5.282-108.864-5.282-144.493-31.695-35.629-25.090-60.043-61.406-73.237-108.945-11.876-46.219-13.856-99.042-5.939-158.466h253.361v-509.073h-488.907v528.881c0 172.992 40.907 303.728 122.722 392.205 81.813 89.798 203.876 120.831 366.185 93.099zM488.907 950.185l-29.69-206.006c-60.702 5.282-108.866-5.282-144.495-31.695-35.629-25.090-60.043-61.406-73.237-108.945-11.876-46.219-13.856-99.042-5.939-158.466h253.361v-509.073h-488.907v528.881c0 172.992 40.907 303.728 122.722 392.205 81.814 89.798 203.877 120.831 366.185 93.099z" />
<glyph unicode="&#xe902;" glyph-name="ondertiteling" horiz-adv-x="1229" d="M1070.561 938.417h-912.297c-84.319 0-152.931-68.613-152.931-152.932v-674.968c0-84.32 68.612-152.934 152.931-152.934h912.297c84.316 0 152.931 68.615 152.931 152.934v674.968c0 84.319-68.615 152.932-152.931 152.932zM112.798 785.484c0 25.048 20.418 45.466 45.466 45.466h912.297c25.047 0 45.466-20.419 45.466-45.466v-674.968c0-25.047-20.419-45.466-45.466-45.466h-912.297c-25.048 0-45.466 20.419-45.466 45.466v674.968zM252.503 279.487h145.656c29.594 0 53.733 24.136 53.733 53.733 0 29.594-24.139 53.733-53.733 53.733h-145.656c-29.594 0-53.733-24.139-53.733-53.733 0-29.597 24.138-53.733 53.733-53.733zM553.817 279.487h431.35c29.594 0 53.733 24.136 53.733 53.733 0 29.594-24.139 53.733-53.733 53.733h-431.35c-29.594 0-53.733-24.139-53.733-53.733 0-29.597 24.139-53.733 53.733-53.733zM985.167 241.295h-145.657c-29.594 0-53.733-24.139-53.733-53.736 0-29.594 24.139-53.733 53.733-53.733h145.657c29.594 0 53.733 24.139 53.733 53.733 0 29.597-24.139 53.736-53.733 53.736zM252.503 133.827h431.348c29.594 0 53.733 24.139 53.733 53.733 0 29.597-24.139 53.736-53.733 53.736h-431.348c-29.594 0-53.733-24.139-53.733-53.736 0-29.594 24.138-53.733 53.733-53.733z" />
<glyph unicode="&#xe903;" glyph-name="woojers" horiz-adv-x="1186" d="M1103.096 633.953h-338.645c-48.492 49.273-113.101 76.356-182.148 76.356s-133.656-27.083-182.145-76.356h-317.567c-32.435 0-58.801-26.433-58.801-58.869v-234.553c0-32.437 26.366-58.802 58.801-58.802h310.973c48.492-52.927 117.146-83.275 188.739-83.275s140.248 30.348 188.739 83.275h332.054c32.434 0 58.799 26.365 58.799 58.802v234.553c0 32.437-26.365 58.869-58.799 58.869zM838.195 454.413c0 32.892-6.069 64.676-18.141 94.696h257.002v-182.539h-254.394c10.313 28.063 15.532 57.562 15.532 87.843zM543.93 621.094c12.398 2.937 25.32 4.374 38.373 4.374s25.975-1.501 38.505-4.374c41.31-9.461 77.53-33.999 101.939-69.177 20.035-28.715 30.607-62.391 30.607-97.504 0-32.24-9.070-63.695-26.233-90.91-19.777-31.458-49.731-55.997-84.321-69.179-38.438-14.684-82.424-14.684-120.994 0-34.59 13.053-64.544 37.656-84.386 69.179-17.163 27.214-26.236 58.67-26.236 90.91 0 35.112 10.574 68.789 30.61 97.504 24.474 35.11 60.694 59.715 102.069 69.177h0.067zM326.411 454.413c0-30.281 5.22-59.78 15.532-87.843h-233.313v182.539h235.922c-12.072-30.019-18.141-61.804-18.141-94.696zM203.456 739.808l37.134-9.789c1.697-0.457 3.459-0.653 5.156-0.653 8.419 0 16.185 5.351 18.861 13.575 15.206 46.271 46.859 85.363 89.083 109.967s91.758 32.892 139.531 23.299c10.31-2.023 20.493 4.307 23.169 14.488l9.787 37.135c1.436 5.351 0.587 10.899-2.35 15.598-2.87 4.699-7.634 8.027-12.986 9.137-67.22 14.097-137.052 2.741-196.57-31.914s-103.831-89.801-124.781-155.26c-1.697-5.221-1.11-10.964 1.501-15.794 2.676-4.894 7.114-8.288 12.465-9.724v-0.065zM478.666 833.003c-35.568 5.743-70.939-0.783-102.265-19.057s-54.493-45.749-67.023-79.555c-1.894-5.156-1.566-10.964 1.043-15.924 2.611-5.025 7.243-8.745 12.727-10.181l37.263-9.855c1.698-0.457 3.46-0.653 5.158-0.653 7.831 0 15.206 4.634 18.273 12.008 6.395 15.402 17.489 28.063 31.978 36.547 14.554 8.484 31 11.878 47.576 9.789 9.658-1.24 18.86 5.156 21.407 14.749l9.855 37.265c1.436 5.482 0.52 11.356-2.611 16.12-3.067 4.699-7.896 7.897-13.379 8.745zM921.926 156.163l-37.133 9.79c-10.181 2.676-20.752-3.002-24.015-12.921-15.206-46.271-46.859-85.364-89.083-109.967-42.227-24.606-91.758-32.895-139.531-23.299-10.313 2.088-20.493-4.309-23.169-14.49l-9.787-37.133c-1.436-5.352-0.587-10.9 2.347-15.6 2.873-4.697 7.637-7.96 12.989-9.135 18.86-3.98 37.853-5.875 56.843-5.875 48.686 0 96.914 12.857 139.727 37.853 59.519 34.654 103.831 89.802 124.78 155.26 1.698 5.22 1.11 10.965-1.501 15.794-2.676 4.829-7.047 8.289-12.466 9.723zM646.718 62.968c8.354-1.369 16.705-2.024 24.994-2.024 26.953 0 53.321 7.114 77.272 21.081 31.326 18.273 54.493 45.749 67.023 79.557 1.892 5.155 1.566 10.962-1.043 15.923-2.611 5.026-7.246 8.744-12.727 10.181l-37.266 9.855c-9.658 2.544-19.709-2.35-23.428-11.356-6.395-15.403-17.424-28.063-31.978-36.546-14.554-8.486-31-11.878-47.576-9.79-9.661 1.24-18.86-5.158-21.407-14.751l-9.855-37.263c-1.436-5.484-0.523-11.356 2.611-16.12 3.002-4.7 7.896-7.898 13.379-8.747z" />
<glyph unicode="&#xe904;" glyph-name="soundshirt" horiz-adv-x="1195" d="M919.324 333.611l81.217 116.764c13.022 18.739 11.574 43.745-3.581 60.828l-193.505 218.514c-9.37 10.609-22.804 16.671-36.995 16.671h-344.368c-14.123 0-27.557-6.062-36.924-16.602l-193.576-218.583c-15.155-17.084-16.602-42.089-3.582-60.897l81.219-116.696c7.509-10.817 19.288-18.256 32.239-20.46s26.522 0.964 37.2 8.678l17.772 12.882v-270.043c0-27.21 22.116-49.323 49.326-49.323h376.954c27.21 0 49.323 22.113 49.323 49.323v270.043l17.775-12.882c10.675-7.714 24.246-10.883 37.197-8.678 12.954 2.204 24.732 9.643 32.242 20.46h0.068zM419.129 457.472c-16.6 8.474-36.235 6.958-51.391-3.996l-48.427-35.063-39.749 57.108 160.578 181.313h308.136l160.577-181.313-39.748-57.108-48.43 35.132c-15.087 10.886-34.788 12.402-51.322 3.996-16.6-8.474-26.866-25.281-26.866-43.952v-308.688h-296.494v308.688c0 18.6-10.331 35.479-26.866 43.952v-0.068zM248.356 856.128c10.815 2.48 17.911 12.951 16.12 23.973l-6.544 39.955c-0.964 5.787-4.133 10.747-8.955 14.053-4.822 3.238-10.815 4.409-16.464 3.169-70.817-15.431-133.229-56.42-175.664-115.526s-61.31-131.301-53.25-203.359c0.62-5.786 3.651-11.090 8.267-14.603 3.72-2.825 8.129-4.272 12.675-4.272 1.171 0 2.342 0.071 3.513 0.276l39.955 6.545c10.953 1.792 18.669 11.85 17.566 22.801-5.304 51.116 8.335 102.438 38.44 144.391 30.104 41.884 74.261 71.231 124.342 82.597zM214.739 648.567c-0.482 17.636 4.753 34.582 15.086 48.98 10.333 14.467 24.731 24.8 41.608 29.967 9.851 3.031 15.983 13.089 14.259 23.491l-6.612 40.162c-0.965 5.924-4.409 11.16-9.438 14.397-4.96 3.169-11.022 4.134-16.671 2.687-36.786-9.782-67.992-31.413-90.312-62.482-22.32-31.138-32.791-67.648-30.311-105.607 0.413-5.786 3.238-11.227 7.853-14.948 3.789-3.032 8.473-4.617 13.226-4.617 1.171 0 2.273 0.068 3.444 0.276l40.162 6.613c10.333 1.724 17.979 10.746 17.635 21.012l0.069 0.068zM1191.086 277.672c-0.62 5.788-3.649 11.090-8.266 14.535-4.685 3.513-10.402 5.029-16.188 3.996l-39.956-6.545c-10.951-1.789-18.668-11.847-17.564-22.801 5.302-51.186-8.337-102.437-38.44-144.39-30.106-41.884-74.263-71.231-124.342-82.597-10.817-2.48-17.911-12.951-16.122-23.973l6.545-39.956c0.964-5.788 4.133-10.746 8.957-14.054 3.513-2.409 7.714-3.649 11.986-3.649 1.513 0 3.029 0.137 4.477 0.481 70.815 15.431 133.228 56.42 175.664 115.527 42.433 59.105 61.309 131.3 53.248 203.358v0.068zM941.645 87.817c36.784 9.782 67.991 31.414 90.311 62.481 22.32 31.070 32.791 67.581 30.31 105.606-0.412 5.857-3.237 11.23-7.854 14.95-4.685 3.718-10.746 5.302-16.671 4.338l-40.161-6.613c-10.334-1.721-17.98-10.746-17.636-21.009 0.484-17.636-4.753-34.583-15.087-48.981-10.334-14.467-24.73-24.798-41.609-29.966-9.85-3.029-15.98-13.087-14.259-23.489l6.613-40.164c0.964-5.925 4.409-11.159 9.438-14.396 3.445-2.204 7.37-3.376 11.366-3.376 1.792 0 3.513 0.208 5.305 0.688l-0.068-0.068z" />
<glyph unicode="&#xe905;" glyph-name="tolk-ngt" horiz-adv-x="724" d="M105.878 362.406c6.35 8.754 13.193 17.138 21.084 24.476 5.364 5.917 11.159 10.787 16.275 15.103 1.171 0.987 2.405 2.036 3.576 3.022 55.238 48.086 64.608 95.432 70.835 126.689 2.158 10.912 4.007 20.283 7.521 28.605 10.481 24.783 30.763 27.928 38.963 28.113 1.294 0 2.65 0 3.946 0 22.068-1.109 44.447-15.29 58.38-36.989 14.796-22.995 27.188-63.93 1.788-128.417-0.31-0.862-0.739-1.601-1.109-2.465 24.042 9.001 47.838 18.989 71.018 31.442 28.789 14.548 34.339 18.31 62.082 16.521 48.887-4.069 98.761-6.164 148.882-4.253 11.591 0.432 21.269 8.569 21.639 20.158 0.37 11.654-8.754 22.196-20.405 22.995-43.525 2.96-84.645 8.879-123.237 11.961-7.952 0.617-14.736 1.479-21.824 2.65-6.536 1.419-11.591 2.283-16.337 5.427-2.405 1.726-4.501 3.514-6.536 6.903-5.979 10.42-0.862 18.557 8.015 23.242 13.624 7.213 28.545 11.714 43.463 16.461 58.568 15.225 116.888 39.022 170.708 59.674 12.945 4.995 20.343 18.31 15.967 31.504-4.316 13.192-18.312 19.913-31.689 16.029-59.182-17.141-120.71-33.108-181.373-54.252-10.295-3.267-16.337-4.685-24.164-0.247-2.652 1.851-5.058 4.009-6.414 6.966-2.343 5.302-1.356 9.311 1.973 13.749 3.022 3.946 7.275 6.411 11.651 9.74 58.198 38.777 120.587 83.103 179.030 125.394 13.007 9.432 16.769 26.817 7.83 40.072-0.432 0.616-0.864 1.233-1.294 1.788-9.311 11.713-25.895 13.933-38.964 6.042-66.088-39.949-133.1-83.165-194.75-124.778-1.663-1.049-3.267-1.973-4.993-2.528-10.173-2.897-14.611 6.042-10.417 12.823 0.677 0.986 1.294 1.973 1.971 2.959 37.791 57.026 81.256 120.154 126.876 181.372 9.556 12.885 7.213 30.824-5.612 40.442-12.822 9.679-30.083 6.473-40.688-5.61-48.148-55.176-93.459-112.695-137.353-173.789-6.906-9.74-13.195-17.632-21.639-25.091-37.114-32.366-77.555-51.477-101.352-48.271-15.227 2.465-17.879 6.289-19.852 19.296-5.98 38.9 2.651 66.642-0.246 90.747-11.097 92.72-67.876 101.845-86.864 90.994-22.934-13.069 44.511-77.061-2.158-200.605-3.021-7.77-6.349-15.228-8.014-22.81-12.823-36.065-4.501-87.667-18.68-121.204-2.219-4.87-5.179-9.308-8.508-13.13-54.806-43.093-11.528-138.834 40.688-169.165l0.308 0.245zM704.237 246.137c-2.65 14.733-16.152 24.536-31.442 23.797-77.122-3.824-156.65-10.11-230.63-17.57-1.911-0.125-3.821-0.185-5.61 0.122-10.355 2.28-9.985 12.208-3.082 16.214 1.049 0.554 2.095 1.109 3.144 1.663 60.294 32.306 128.477 67.259 197.709 99.503 14.548 6.781 20.96 23.674 14.241 38.285-6.721 14.548-23.427 19.973-38.47 14.301-68.553-25.707-135.752-54.929-203.319-87.849-10.727-5.302-19.975-9.248-30.947-11.836-48.026-10.912-92.66-8.569-112.14 5.61-12.268 9.371-12.76 13.994-8.322 26.384 13.192 37.051 33.907 57.396 42.846 80.022 34.154 86.925-11.466 121.819-33.352 121.327-26.386-0.617 2.65-88.961-96.974-175.579-6.288-5.425-12.823-10.357-17.879-16.274-28.42-25.647-45.559-75.089-73.917-97.837-4.315-3.269-8.939-5.734-13.748-7.523-91.857-15.967-73.917-198.264 0-196.598 22.934 1.356 40.874-3.329 61.156-6.966 64.239-8.632 127.305-24.414 194.379-24.476 32.244-0.862 38.9-0.122 62.511-14.918 41.12-26.756 84.028-52.279 129.031-74.287 10.42-5.118 22.813-2.528 28.667 7.52 5.857 10.050 2.775 23.734-7.028 29.901-36.926 23.242-70.279 47.963-102.767 68.985-6.721 4.316-12.208 8.322-17.94 12.7-5.118 4.316-9.124 7.52-11.776 12.515-1.294 2.65-2.28 5.24-2.465 9.184-0.31 12.023 8.015 16.769 18.125 16.646 15.412-0.122 30.7-3.207 46.112-6.104 58.815-14.363 121.449-21.084 178.598-28.42 13.749-1.788 26.572 6.474 28.974 20.16 2.405 13.684-6.718 26.262-20.28 29.159-60.231 12.947-122.006 28.113-185.381 38.223-10.602 1.973-16.644 3.636-21.392 11.281-1.479 2.897-2.528 5.919-2.343 9.186 0.432 5.734 3.267 8.876 8.262 11.159 4.561 2.033 9.431 2.158 14.918 3.082 69.664 6.534 145.555 15.967 217.068 25.523 15.904 2.095 27.496 15.66 25.892 31.564-0.062 0.739-0.185 1.479-0.31 2.22h-0.122z" />
<glyph unicode="&#xe906;" glyph-name="schrijftolk" horiz-adv-x="1272" d="M1017.93 527.208l-43.197-43.2-43.2 43.2 43.2 43.197 43.197-43.197zM1082.806 462.33l-43.197-43.197-43.2 43.197 43.2 43.2 43.197-43.2zM953.055 462.33l-43.197-43.197-43.2 43.197 43.2 43.2 43.197-43.2zM1017.93 397.532l-43.197-43.2-43.2 43.2 43.2 43.2 43.197-43.2zM1104.406 311.057l-172.95-172.95-43.197 43.2 172.95 172.95 43.197-43.2zM758.508 267.782l-43.2-43.2-43.2 43.2 43.2 43.197 43.2-43.197zM823.383 202.907l-43.2-43.2-43.2 43.2 43.2 43.197 43.2-43.197zM801.783 267.782l43.197 43.197 43.2-43.197-43.2-43.2-43.197 43.2zM736.908 332.657l43.197 43.197 43.2-43.197-43.2-43.2-43.197 43.2zM866.58 332.657l43.2 43.197 43.2-43.197-43.2-43.2-43.2 43.2zM801.783 397.532l43.197 43.2 43.2-43.2-43.2-43.2-43.197 43.2zM931.455 656.957l-345.898-345.9c-23.974-23.974-23.974-62.501 0-86.475l216.148-216.148c11.491-11.491 27.040-17.923 43.2-17.923 16.238 0 31.787 6.433 43.197 17.923l345.901 345.898c11.491 11.491 17.923 27.040 17.923 43.2 0 16.238-6.433 31.787-17.923 43.2l-216.148 216.148c-23.974 23.974-62.731 23.744-86.475 0l0.074 0.077zM343.903 52.016c-13.483 3.522-25.355 9.573-33.626 16.161-28.876 24.893-45.727 55.606-50.936 131.513-5.898 79.047-40.901 124.388-75.139 168.585-29.412 37.913-60.050 77.206-77.59 145.836-13.327 50.17-13.94 103.554-2.757 146.83 33.778 130.44 162.763 206.422 293.203 172.644 130.442-33.778 206.423-162.763 172.643-293.204l93.141-24.126c47.411 183.060-58.595 363.133-241.655 410.469-183.062 47.412-363.135-58.595-410.47-241.655-15.166-58.671-14.247-128.065 2.834-194.55 23.438-88.083 62.348-139.401 94.747-181.068 30.255-38.682 51.854-66.638 54.918-116.118 5.974-91.989 29.565-148.821 84.33-198.302 20.987-16.849 45.65-29.184 72.153-36.076 49.403-12.791 101.869-5.44 145.911 20.449 43.967 25.892 75.906 68.248 88.697 117.651l-93.137 24.126c-6.436-24.74-22.367-45.878-44.349-58.824-21.985-12.946-48.255-16.62-72.918-10.265v-0.074zM220.355 630.762c-3.983-15.32-4.902-31.251-2.681-46.874 2.221-15.627 7.43-30.717 15.472-44.349 16.162-27.499 42.664-47.414 73.531-55.454 15.318-3.984 31.249-4.903 46.876-2.681 15.624 2.222 30.714 7.429 44.349 15.472 13.632 8.043 25.504 18.612 35.002 31.251s16.468 26.959 20.374 42.279c7.965 30.869 3.37 63.649-12.791 91.148s-42.664 47.412-73.529 55.455c-30.869 7.966-63.651 3.37-91.149-12.791s-47.412-42.663-55.454-73.532v0.078z" />
<glyph unicode="&#xe907;" glyph-name="visuele-voorstelling" horiz-adv-x="1493" d="M739.853 657.423c53.504 0 104.794-21.274 142.707-59.083 37.807-37.809 59.081-89.203 59.081-142.703 0-53.504-21.274-104.794-59.081-142.707-37.811-37.807-89.203-59.081-142.707-59.081-53.5 0-104.789 21.274-142.703 59.081-37.811 37.811-59.085 89.203-59.085 142.707 0 53.5 21.274 104.789 59.085 142.703 37.807 37.809 89.203 59.083 142.703 59.083zM739.853 960c336.277 0 623.479-209.16 739.857-504.469-116.378-295.309-403.58-504.469-739.857-504.469s-623.477 209.161-739.853 504.469c116.375 295.309 403.576 504.469 739.853 504.469zM146.601 455.637c111.005-226.014 340.387-369.98 593.251-369.98 252.868 0 482.249 143.966 593.254 369.98-111.006 226.009-340.386 369.978-593.254 369.978-252.864 0-482.247-143.969-593.251-369.978z" />
<glyph unicode="&#xe908;" glyph-name="optreden-dove-performers" horiz-adv-x="964" d="M2.909 806.605l46.463 46.092c3.94 3.94 10.408 3.94 14.348 0l828.982-828.983c3.942-3.942 3.942-10.333 0-14.348l-46.089-46.466c-3.942-4.015-10.409-4.015-14.423 0l-263.394 263.394c-3.641 3.641-9.439 4.015-13.454 0.816-30.63-24.233-52.932-45.571-66.165-85.79-28.473-86.383-65.048-134.93-129.428-168.68-0.298-0.148-0.596-0.298-0.967-0.446-24.16-10.779-50.628-16.429-77.539-16.429-50.478 0-98.874 20.070-134.633 55.757-33.082 33.081-52.782 77.164-55.459 123.702-0.372 5.873 4.238 10.93 10.185 10.93h75.085c5.204 0 9.59-3.939 10.036-9.144 2.082-21.856 11.746-42.451 27.432-58.136 17.842-17.842 42.077-27.877 67.279-27.877 13.828 0 26.615 2.825 36.204 7.135 33.75 16.652 57.615 41.854 81.405 113.297 19.326 59.326 52.483 93.521 87.796 121.995 4.683 3.792 4.981 10.779 0.744 15.017l-283.836 283.392c-6.319 6.319-17.173 1.934-17.322-7.063 0-0.075 0-0.223 0-0.298-0.074-5.575-4.609-9.96-10.11-9.96h-74.713c-5.65 0-10.334 4.683-10.185 10.333 0.966 33.452 6.765 65.123 16.429 95.082 1.189 3.643 0.297 7.583-2.453 10.259l-102.145 102.146c-4.014 4.014-3.94 10.408 0 14.422l-0.074-0.148zM622.917 434.378c25.202 44.752 39.029 95.678 39.029 139.912 0 133.219-104.674 237.966-237.969 237.966-53.374 0-101.698-16.504-140.95-45.125-4.089-2.974-9.664-2.676-13.233 0.892l-53.823 53.823c-4.238 4.238-3.94 11.374 0.743 15.091 56.351 44.233 128.165 70.476 207.338 70.476 187.043 0 333.125-146.081 333.125-333.123 0-59.994-18.065-126.085-50.923-185.633l-15.167-24.681c-3.418-5.575-11.225-6.542-15.833-1.858l-53.974 54.344c-3.195 3.271-3.864 8.252-1.56 12.267l3.271 5.65h-0.075zM733.762 884.069l53.152 53.154c4.015 4.014 10.632 4.014 14.499 0 90.473-94.042 146.007-221.91 146.007-362.862 0-130.768-48.026-250.308-126.976-342.046-3.867-4.46-10.779-4.608-14.944-0.446l-52.856 53.23c-3.717 3.717-3.864 9.665-0.518 13.679 62.072 74.267 100.063 170.463 100.063 275.582 0 115.305-44.755 219.011-118.576 295.508-3.864 4.015-3.864 10.334 0 14.274l0.151-0.074zM542.925 574.289c0-18.513-4.012-35.090-11.002-50.034-2.897-6.319-11.372-7.508-16.279-2.674l-144.372 144.37c-4.906 4.907-3.644 13.382 2.674 16.281 14.944 6.988 31.449 11.003 50.031 11.003 31.521 0 61.78-12.564 84.155-34.866 22.377-22.302 34.867-52.561 34.867-84.155l-0.075 0.075z" />
<glyph unicode="&#xe909;" glyph-name="linkedin" horiz-adv-x="1088" d="M587.327 653.056v-108.608c22.744 34.644 54.093 62.79 90.983 81.683 36.883 18.892 78.042 27.884 119.45 26.093 221.12 0 268.928-138.24 268.928-318.080v-366.144h-204.8v324.608c0 77.44-15.616 177.024-136.192 177.024-116.929 0-136.897-84.288-136.897-171.264v-330.368h-204.16v685.056h202.688zM247.487 825.216c-0.025-20.288-6.039-40.118-17.288-57.002s-27.231-30.072-45.944-37.91c-18.705-7.775-39.301-9.809-59.165-5.843s-38.1 13.753-52.387 28.115c-14.312 14.371-24.057 32.652-28.007 52.546s-1.93 40.511 5.806 59.26c7.736 18.749 20.843 34.792 37.673 46.111s36.63 17.41 56.912 17.506c13.48 0 26.827-2.661 39.276-7.831s23.755-12.747 33.268-22.297c9.514-9.55 17.048-20.883 22.172-33.351s7.734-25.825 7.684-39.305zM247.487 652.224h-204.8v-684.224h204.8v684.224z" />
<glyph unicode="&#xe90a;" glyph-name="mail" horiz-adv-x="1216" d="M317.244 901.926c200.582 17.432 402.295 17.432 602.877 0l96.704-8.32c31.008-2.705 60.832-13.191 86.707-30.486s46.97-40.842 61.325-68.458c1.677-3.407 2.010-7.322 0.934-10.963-1.082-3.641-3.494-6.742-6.758-8.685l-401.024-248.32c-42.202-26.131-90.758-40.213-140.396-40.721s-98.469 12.579-141.201 37.841l-403.648 238.592c-3.182 1.799-5.603 4.691-6.815 8.139s-1.133 7.219 0.223 10.613c13.080 31.011 34.374 57.864 61.587 77.668s59.314 31.807 92.845 34.716l96.64 8.384zM65.851 654.95c-2.287 1.354-4.877 2.113-7.534 2.206s-5.294-0.482-7.67-1.673c-2.376-1.192-4.415-2.961-5.93-5.144s-2.456-4.714-2.739-7.357c-16.228-161.142-12.272-323.68 11.776-483.84 6.219-41.030 26.054-78.771 56.316-107.168 30.262-28.39 69.192-45.779 110.532-49.376l96.64-8.384c200.64-17.472 402.367-17.472 603.007 0l96.64 8.32c41.357 3.616 80.294 21.043 110.547 49.472s50.061 66.214 56.237 107.264c24.749 164.826 28.211 332.147 10.304 497.856-0.307 2.653-1.286 5.186-2.835 7.363s-3.622 3.927-6.029 5.089c-2.406 1.162-5.069 1.697-7.731 1.556-2.669-0.14-5.261-0.952-7.533-2.36l-361.28-223.616c-57.088-35.331-122.752-54.371-189.886-55.059s-133.176 17.002-190.977 51.155l-361.856 213.696z" />
<glyph unicode="&#xe90b;" glyph-name="close" d="M19.629 39.232l910.936 910.936 93.429-93.429-910.936-910.936-93.429 93.429zM113.064 950.199l910.936-910.936-93.429-93.429-910.936 910.936 93.429 93.429z" />
<glyph unicode="&#xe90c;" glyph-name="vimeo" horiz-adv-x="1229" d="M1228.191 723.026c-5.524-115.131-89.042-272.773-250.552-473.513-167.030-210.191-308.275-313.513-424.95-313.513-70.623 0-131.419 63.764-181.16 191.887-33.776 115.722-64.48 232.622-98.87 349.526-36.846 127.53-76.148 191.295-119.135 191.295-8.597 0-40.53-18.894-95.799-56.090l-57.725 72.031c61.41 51.366 120.363 102.733 179.316 154.099 81.061 67.308 141.856 102.733 181.773 106.275 95.799 9.447 154.751-54.319 176.86-188.934 23.951-145.833 40.53-236.167 49.741-271.592 26.409-120.445 57.114-179.489 90.885-179.489 25.795 0 64.481 37.791 116.065 116.316 51.584 77.934 79.217 137.566 82.903 178.895 7.368 67.308-20.265 100.961-82.903 100.961-29.476 0-59.566-6.494-90.885-19.484 60.18 190.705 175.631 283.4 345.733 278.087 126.505-3.543 186.071-82.658 178.703-236.757z" />
<glyph unicode="&#xe90d;" glyph-name="soundshirts" horiz-adv-x="1195" d="M919.324 333.611l81.217 116.764c13.022 18.739 11.574 43.745-3.581 60.828l-193.505 218.514c-9.37 10.609-22.804 16.671-36.995 16.671h-344.368c-14.123 0-27.557-6.062-36.924-16.602l-193.576-218.583c-15.155-17.084-16.602-42.089-3.582-60.897l81.219-116.696c7.509-10.817 19.288-18.256 32.239-20.46s26.522 0.964 37.2 8.678l17.772 12.882v-270.043c0-27.21 22.116-49.323 49.326-49.323h376.954c27.21 0 49.323 22.113 49.323 49.323v270.043l17.775-12.882c10.675-7.714 24.246-10.883 37.197-8.678 12.954 2.204 24.732 9.643 32.242 20.46h0.068zM419.129 457.472c-16.6 8.474-36.235 6.958-51.391-3.996l-48.427-35.063-39.749 57.108 160.578 181.313h308.136l160.577-181.313-39.748-57.108-48.43 35.132c-15.087 10.886-34.788 12.402-51.322 3.996-16.6-8.474-26.866-25.281-26.866-43.952v-308.688h-296.494v308.688c0 18.6-10.331 35.479-26.866 43.952v-0.068zM248.356 856.128c10.815 2.48 17.911 12.951 16.12 23.973l-6.544 39.955c-0.964 5.787-4.133 10.747-8.955 14.053-4.822 3.238-10.815 4.409-16.464 3.169-70.817-15.431-133.229-56.42-175.664-115.526s-61.31-131.301-53.25-203.359c0.62-5.786 3.651-11.090 8.267-14.603 3.72-2.825 8.129-4.272 12.675-4.272 1.171 0 2.342 0.071 3.513 0.276l39.955 6.545c10.953 1.792 18.669 11.85 17.566 22.801-5.304 51.116 8.335 102.438 38.44 144.391 30.104 41.884 74.261 71.231 124.342 82.597zM214.739 648.567c-0.482 17.636 4.753 34.582 15.086 48.98 10.333 14.467 24.731 24.8 41.608 29.967 9.851 3.031 15.983 13.089 14.259 23.491l-6.612 40.162c-0.965 5.924-4.409 11.16-9.438 14.397-4.96 3.169-11.022 4.134-16.671 2.687-36.786-9.782-67.992-31.413-90.312-62.482-22.32-31.138-32.791-67.648-30.311-105.607 0.413-5.786 3.238-11.227 7.853-14.948 3.789-3.032 8.473-4.617 13.226-4.617 1.171 0 2.273 0.068 3.444 0.276l40.162 6.613c10.333 1.724 17.979 10.746 17.635 21.012l0.069 0.068zM1191.086 277.672c-0.62 5.788-3.649 11.090-8.266 14.535-4.685 3.513-10.402 5.029-16.188 3.996l-39.956-6.545c-10.951-1.789-18.668-11.847-17.564-22.801 5.302-51.186-8.337-102.437-38.44-144.39-30.106-41.884-74.263-71.231-124.342-82.597-10.817-2.48-17.911-12.951-16.122-23.973l6.545-39.956c0.964-5.788 4.133-10.746 8.957-14.054 3.513-2.409 7.714-3.649 11.986-3.649 1.513 0 3.029 0.137 4.477 0.481 70.815 15.431 133.228 56.42 175.664 115.527 42.433 59.105 61.309 131.3 53.248 203.358v0.068zM941.645 87.817c36.784 9.782 67.991 31.414 90.311 62.481 22.32 31.070 32.791 67.581 30.31 105.606-0.412 5.857-3.237 11.23-7.854 14.95-4.685 3.718-10.746 5.302-16.671 4.338l-40.161-6.613c-10.334-1.721-17.98-10.746-17.636-21.009 0.484-17.636-4.753-34.583-15.087-48.981-10.334-14.467-24.73-24.798-41.609-29.966-9.85-3.029-15.98-13.087-14.259-23.489l6.613-40.164c0.964-5.925 4.409-11.159 9.438-14.396 3.445-2.204 7.37-3.376 11.366-3.376 1.792 0 3.513 0.208 5.305 0.688l-0.068-0.068z" />
<glyph unicode="&#xe90e;" glyph-name="woojer" horiz-adv-x="1186" d="M1103.096 633.953h-338.645c-48.492 49.273-113.101 76.356-182.148 76.356s-133.656-27.083-182.145-76.356h-317.567c-32.435 0-58.801-26.433-58.801-58.869v-234.553c0-32.437 26.366-58.802 58.801-58.802h310.973c48.492-52.927 117.146-83.275 188.739-83.275s140.248 30.348 188.739 83.275h332.054c32.434 0 58.799 26.365 58.799 58.802v234.553c0 32.437-26.365 58.869-58.799 58.869zM838.195 454.413c0 32.892-6.069 64.676-18.141 94.696h257.002v-182.539h-254.394c10.313 28.063 15.532 57.562 15.532 87.843zM543.93 621.094c12.398 2.937 25.32 4.374 38.373 4.374s25.975-1.501 38.505-4.374c41.31-9.461 77.53-33.999 101.939-69.177 20.035-28.715 30.607-62.391 30.607-97.504 0-32.24-9.070-63.695-26.233-90.91-19.777-31.458-49.731-55.997-84.321-69.179-38.438-14.684-82.424-14.684-120.994 0-34.59 13.053-64.544 37.656-84.386 69.179-17.163 27.214-26.236 58.67-26.236 90.91 0 35.112 10.574 68.789 30.61 97.504 24.474 35.11 60.694 59.715 102.069 69.177h0.067zM326.411 454.413c0-30.281 5.22-59.78 15.532-87.843h-233.313v182.539h235.922c-12.072-30.019-18.141-61.804-18.141-94.696zM203.456 739.808l37.134-9.789c1.697-0.457 3.459-0.653 5.156-0.653 8.419 0 16.185 5.351 18.861 13.575 15.206 46.271 46.859 85.363 89.083 109.967s91.758 32.892 139.531 23.299c10.31-2.023 20.493 4.307 23.169 14.488l9.787 37.135c1.436 5.351 0.587 10.899-2.35 15.598-2.87 4.699-7.634 8.027-12.986 9.137-67.22 14.097-137.052 2.741-196.57-31.914s-103.831-89.801-124.781-155.26c-1.697-5.221-1.11-10.964 1.501-15.794 2.676-4.894 7.114-8.288 12.465-9.724v-0.065zM478.666 833.003c-35.568 5.743-70.939-0.783-102.265-19.057s-54.493-45.749-67.023-79.555c-1.894-5.156-1.566-10.964 1.043-15.924 2.611-5.025 7.243-8.745 12.727-10.181l37.263-9.855c1.698-0.457 3.46-0.653 5.158-0.653 7.831 0 15.206 4.634 18.273 12.008 6.395 15.402 17.489 28.063 31.978 36.547 14.554 8.484 31 11.878 47.576 9.789 9.658-1.24 18.86 5.156 21.407 14.749l9.855 37.265c1.436 5.482 0.52 11.356-2.611 16.12-3.067 4.699-7.896 7.897-13.379 8.745zM921.926 156.163l-37.133 9.79c-10.181 2.676-20.752-3.002-24.015-12.921-15.206-46.271-46.859-85.364-89.083-109.967-42.227-24.606-91.758-32.895-139.531-23.299-10.313 2.088-20.493-4.309-23.169-14.49l-9.787-37.133c-1.436-5.352-0.587-10.9 2.347-15.6 2.873-4.697 7.637-7.96 12.989-9.135 18.86-3.98 37.853-5.875 56.843-5.875 48.686 0 96.914 12.857 139.727 37.853 59.519 34.654 103.831 89.802 124.78 155.26 1.698 5.22 1.11 10.965-1.501 15.794-2.676 4.829-7.047 8.289-12.466 9.723zM646.718 62.968c8.354-1.369 16.705-2.024 24.994-2.024 26.953 0 53.321 7.114 77.272 21.081 31.326 18.273 54.493 45.749 67.023 79.557 1.892 5.155 1.566 10.962-1.043 15.923-2.611 5.026-7.246 8.744-12.727 10.181l-37.266 9.855c-9.658 2.544-19.709-2.35-23.428-11.356-6.395-15.403-17.424-28.063-31.978-36.546-14.554-8.486-31-11.878-47.576-9.79-9.661 1.24-18.86-5.158-21.407-14.751l-9.855-37.263c-1.436-5.484-0.523-11.356 2.611-16.12 3.002-4.7 7.896-7.898 13.379-8.747z" />
<glyph unicode="&#xe90f;" glyph-name="contrast" d="M512-64c-70.826 0-137.386 13.45-199.68 40.346s-116.48 63.37-162.56 109.414c-46.080 46.044-82.551 100.234-109.414 162.56s-40.311 128.886-40.346 199.68c-0.034 70.793 13.414 137.353 40.346 199.68s63.402 116.514 109.414 162.56c46.012 46.046 100.198 82.518 162.56 109.414s128.922 40.346 199.68 40.346c70.758 0 137.318-13.449 199.68-40.346s116.547-63.369 162.56-109.414c46.013-46.046 82.499-100.233 109.466-162.56s40.397-128.887 40.294-199.68c-0.102-70.794-13.553-137.354-40.346-199.68s-63.268-116.516-109.414-162.56c-46.147-46.044-100.337-82.534-162.56-109.466s-128.783-40.361-199.68-40.294zM563.2 42.24c101.545 12.8 186.675 57.395 255.386 133.786s103.050 167.050 103.014 271.974c-0.036 104.926-34.391 195.584-103.066 271.974s-153.789 120.986-255.334 133.786v-811.52z" />
<glyph unicode="&#xe910;" glyph-name="stimulus" horiz-adv-x="1493" d="M739.853 657.423c53.504 0 104.794-21.274 142.707-59.083 37.807-37.809 59.081-89.203 59.081-142.703 0-53.504-21.274-104.794-59.081-142.707-37.811-37.807-89.203-59.081-142.707-59.081-53.5 0-104.789 21.274-142.703 59.081-37.811 37.811-59.085 89.203-59.085 142.707 0 53.5 21.274 104.789 59.085 142.703 37.807 37.809 89.203 59.083 142.703 59.083zM739.853 960c336.277 0 623.479-209.16 739.857-504.469-116.378-295.309-403.58-504.469-739.857-504.469s-623.477 209.161-739.853 504.469c116.375 295.309 403.576 504.469 739.853 504.469zM146.601 455.637c111.005-226.014 340.387-369.98 593.251-369.98 252.868 0 482.249 143.966 593.254 369.98-111.006 226.009-340.386 369.978-593.254 369.978-252.864 0-482.247-143.969-593.251-369.978z" />
<glyph unicode="&#xe911;" glyph-name="size" horiz-adv-x="1317" d="M694.857 960h-658.286c-9.699 0-19.001-3.853-25.86-10.712s-10.712-16.161-10.712-25.86v-219.429c0-9.699 3.853-19.002 10.712-25.86s16.161-10.712 25.86-10.712h73.143c9.699 0 19.002 3.853 25.86 10.712s10.712 16.16 10.712 25.86v73.143h128v-694.857h-91.429c-9.699 0-19.002-3.855-25.86-10.708-6.859-6.861-10.712-16.165-10.712-25.863v-73.143c0-9.699 3.853-19.003 10.712-25.863 6.858-6.853 16.16-10.708 25.86-10.708h365.714c9.699 0 19.002 3.855 25.86 10.708 6.859 6.861 10.712 16.165 10.712 25.863v73.143c0 9.699-3.853 19.003-10.712 25.863-6.858 6.853-16.16 10.708-25.86 10.708h-91.429v694.857h128v-73.143c0-9.699 3.853-19.002 10.712-25.86s16.16-10.712 25.86-10.712h73.143c9.699 0 19.002 3.853 25.86 10.712s10.712 16.16 10.712 25.86v219.429c0 9.699-3.853 19.001-10.712 25.86s-16.16 10.712-25.86 10.712zM1280 192h-109.714v512h109.714c32.709 0 48.757 39.566 25.849 62.423l-182.857 182.857c-6.853 6.853-16.15 10.703-25.849 10.703s-18.995-3.85-25.849-10.703l-182.857-182.857c-21.328-21.28-9.904-62.423 25.849-62.423h109.714v-512h-109.714c-32.709 0-48.728-39.563-25.849-62.42l182.857-182.857c6.853-6.853 16.15-10.708 25.849-10.708s18.995 3.855 25.849 10.708l182.857 182.857c21.328 21.277 9.904 62.42-25.849 62.42z" />
<glyph unicode="&#xe912;" glyph-name="toegankelijkheid" horiz-adv-x="922" d="M460.8 755.199c-28.16 0-52.258 10.018-72.294 30.054s-30.071 44.152-30.106 72.346c-0.034 28.194 10.001 52.292 30.106 72.295s44.202 30.037 72.294 30.106c28.092 0.068 52.209-9.967 72.346-30.106s30.157-44.237 30.054-72.295c-0.102-28.058-10.122-52.173-30.054-72.346s-44.049-30.191-72.346-30.054zM307.2-64v665.599h-307.2v102.4h921.6v-102.4h-307.2v-665.599h-102.4v307.2h-102.4v-307.2h-102.4z" />
<glyph unicode="&#xe91e;" glyph-name="arrow-down" d="M512.443-64l-512.443 515.712 66.417 67.138h3.542l394.074-396.588 0.592 837.738h94.753l1.77-837.738 394.368 397.184 68.484-68.919-511.557-514.527z" />
<glyph unicode="&#xe91f;" glyph-name="arrow-left" d="M0 447.557l515.712 512.443 67.138-66.417v-3.542l-396.588-394.074 837.738-0.592v-94.753l-837.738-1.77 397.184-394.368-68.919-68.484-514.527 511.557z" />
<glyph unicode="&#xe920;" glyph-name="arrow-right" d="M1024 448.443l-515.712-512.443-67.138 66.417v3.54l396.588 394.075-837.738 0.592v94.753l837.738 1.77-397.184 394.368 68.919 68.483 514.527-511.557z" />
<glyph unicode="&#xe921;" glyph-name="arrow-up" d="M511.557 960l512.443-515.712-66.417-67.138h-3.54l-394.075 396.588-0.592-837.738h-94.753l-1.77 837.738-394.368-397.184-68.483 68.919 511.558 514.527z" />
<glyph unicode="&#xe922;" glyph-name="check" d="M358.086 79.36l-358.086 349.48 89.521 87.37 268.564-262.11 576.392 562.541 89.522-87.37-665.914-649.91z" />
<glyph unicode="&#xe923;" glyph-name="chevron-down" d="M903.68 768l-391.68-395.574-391.68 395.574-120.32-121.781 512-518.219 512 518.219-120.32 121.781z" />
<glyph unicode="&#xe924;" glyph-name="chevron-left" d="M832 56.32l-395.574 391.68 395.574 391.68-121.781 120.32-518.219-512 518.219-512 121.781 120.32z" />
<glyph unicode="&#xe925;" glyph-name="chevron-right" d="M192 839.68l395.574-391.68-395.574-391.68 121.781-120.32 518.219 512-518.219 512-121.781-120.32z" />
<glyph unicode="&#xe926;" glyph-name="chevron-up" d="M120.32 128l391.68 395.574 391.68-395.574 120.32 121.781-512 518.219-512-518.219 120.32-121.781z" />
<glyph unicode="&#xe927;" glyph-name="facebook" d="M605.091 371.2h132.985l53.197 204.8h-186.182v102.4c0 52.736 0 102.4 106.389 102.4h79.793v172.032c-17.343 2.202-82.823 7.168-151.977 7.168-144.424 0-246.984-84.838-246.984-240.64v-143.36h-159.584v-204.8h159.584v-435.2h212.779v435.2z" />
<glyph unicode="&#xe928;" glyph-name="instagram" d="M296.96 960h430.080c163.84 0 296.96-133.12 296.96-296.96v-430.080c0-78.758-31.287-154.291-86.976-209.984-55.693-55.689-131.226-86.976-209.984-86.976h-430.080c-163.84 0-296.96 133.12-296.96 296.96v430.080c0 78.759 31.287 154.292 86.978 209.982s131.223 86.978 209.982 86.978zM286.72 857.6c-48.884 0-95.767-19.419-130.334-53.986s-53.986-81.449-53.986-130.334v-450.56c0-101.888 82.432-184.32 184.32-184.32h450.56c48.883 0 95.765 19.418 130.334 53.986s53.986 81.451 53.986 130.334v450.56c0 101.888-82.432 184.32-184.32 184.32h-450.56zM780.8 780.8c16.973 0 33.254-6.743 45.257-18.745s18.743-28.281 18.743-45.255c0-16.974-6.741-33.253-18.743-45.255s-28.284-18.745-45.257-18.745c-16.973 0-33.254 6.743-45.257 18.745s-18.743 28.281-18.743 45.255c0 16.974 6.741 33.253 18.743 45.255s28.284 18.745 45.257 18.745zM512 704c67.895 0 133.009-26.971 181.018-74.981 48.013-48.009 74.982-113.124 74.982-181.019s-26.97-133.009-74.982-181.018c-48.009-48.013-113.122-74.982-181.018-74.982s-133.010 26.97-181.019 74.982c-48.009 48.009-74.981 113.122-74.981 181.018s26.971 133.010 74.981 181.019c48.009 48.009 113.124 74.981 181.019 74.981zM512 601.6c-40.738 0-79.808-16.183-108.611-44.989-28.806-28.803-44.989-67.873-44.989-108.611s16.183-79.808 44.989-108.612c28.803-28.804 67.873-44.988 108.611-44.988s79.808 16.183 108.612 44.988c28.804 28.804 44.988 67.874 44.988 108.612s-16.183 79.808-44.988 108.611c-28.804 28.806-67.874 44.989-108.612 44.989z" />
<glyph unicode="&#xe929;" glyph-name="youtube" d="M409.6 301.713l265.728 146.287-265.728 146.286v-292.573zM1001.472 683.52c6.656-22.918 11.264-53.638 14.336-92.648 3.584-39.009 5.12-72.655 5.12-101.912l3.072-40.96c0-106.79-8.192-185.297-22.528-235.52-12.8-43.887-42.496-72.166-88.576-84.356-24.064-6.34-68.096-10.731-135.68-13.653-66.56-3.413-127.488-4.877-183.808-4.877l-81.408-2.927c-214.528 0-348.16 7.804-400.896 21.457-46.080 12.19-75.776 40.469-88.576 84.356-6.656 22.916-11.264 53.636-14.336 92.646-3.584 39.010-5.12 72.657-5.12 101.914l-3.072 40.96c0 106.789 8.192 185.295 22.528 235.52 12.8 43.886 42.496 72.168 88.576 84.358 24.064 6.339 68.096 10.728 135.68 13.653 66.56 3.413 127.488 4.876 183.808 4.876l81.408 2.926c214.528 0 348.16-7.802 400.896-21.455 46.080-12.191 75.776-40.472 88.576-84.358z" />
</font>
</defs>
</svg>
